Safe House (2012) IDFL Forum
Page 1 of 5 123 ... LastLast
Results 1 to 10 of 42

Thread: Safe House (2012)

  1. #1


    Wacko's Avatar
    User ID
    721
    Join Date
    March 5th, 2012
    Location
    Cell 46
    Posts
    3,374
    Thanks
    3,668
    Thanked
    6,081
    Rep Power
    5269


    #GGMU

     

    Safe House (2012)

    INDEX DOWNLOAD





    Last edited by Wacko; 12-07-2015 at 11:29 PM.

  2. The Following 37 Users Say Thank You to Wacko For This Useful Post:



  3. # ADS
    indonesian.library@yahoo.com
    Join Date
    14.Feb.2012
    Location
    08880.182.4423
    Posts
    Contact Us For Cheap Advertising
     

  4. #2


    redskop's Avatar
    User ID
    750
    Join Date
    March 5th, 2012
    Posts
    15
    Thanks
    60
    Thanked
    40
    Rep Power
    0

    No Status for Today

     

    kemaren uda ntn di xx1,filmnya lumayan juga

    rate pribadi : 6.5/10

  5. The Following 5 Users Say Thank You to redskop For This Useful Post:


  6. #3


    nessaholic's Avatar
    User ID
    300
    Join Date
    February 23rd, 2012
    Posts
    54
    Thanks
    111
    Thanked
    52
    Rep Power
    8


    I believe that beauty
    magazines promote low self
    esteem

     

    biasanya kalo ada denzel washington, jaminan mutu nihh...

  7. The Following 2 Users Say Thank You to nessaholic For This Useful Post:


  8. #4


    Lebah Ganteng's Avatar
    User ID
    35
    Join Date
    February 20th, 2012
    Location
    KAMAR
    Posts
    8,844
    Thanks
    45,671
    Thanked
    24,687
    Rep Power
    50


    Kutang Badaiku Hilang !!!!

     

    Quote Originally Posted by nessaholic View Post
    biasanya kalo ada denzel washington, jaminan mutu nihh...
    Ane suka ma si Ryan Reynold setelah kenal ma the proposal, buried ma x-men.....

    Menurut ane, bagus aktingnya...... plus, wajah 11-12 ma ane.......

  9. The Following 2 Users Say Thank You to Lebah Ganteng For This Useful Post:


  10. #5



    User ID
    3824
    Join Date
    April 19th, 2012
    Posts
    11
    Thanks
    16
    Thanked
    15
    Rep Power
    0

    No Status for Today

     

    film full action neh.. dah nonton dibioskop.. keren dah... rating ane 8/10..

  11. The Following User Says Thank You to mefo For This Useful Post:


  12. #6


    oirbaf's Avatar
    User ID
    104
    Join Date
    February 20th, 2012
    Posts
    4,724
    Thanks
    13,294
    Thanked
    6,485
    Rep Power
    129


    first blood

     

    worth it kok buat ditunggu
    aktingnya om denzel di sini top dah
    dah gitu jalan ceritanya juga mayan ada twistednya loh

  13. #7



    User ID
    1545
    Join Date
    March 25th, 2012
    Location
    Notohadinegoro
    Posts
    34
    Thanks
    48
    Thanked
    36
    Rep Power
    0


    PENGEN bisa download sampe 1mb

     

    biasanya klo denzel yang maen ceritanya bagus.. .
    ga tau lagi klo ini.. .

  14. #8


    boyriot's Avatar
    User ID
    162
    Join Date
    February 21st, 2012
    Location
    Inside⏝You
    Posts
    4,323
    Thanks
    5,066
    Thanked
    7,558
    Rep Power
    50


    _[]_

     

    Safe House 2012 DVDRIP XVID HS


    CODE: 

    Format : AVI Format/Info : Audio Video Interleave File size : 956 MiB Duration : 1h 54mn Overall bit rate : 1 163 Kbps Writing application : Lavf52.103.0 Video ID : 1 Format : MPEG-4 Visual Format profile : Simple@L1 Format settings, BVOP : No Format settings, QPel : No Format settings, GMC : No warppoints Format settings, Matrix : Default (H.263) Codec ID : FMP4 Duration : 1h 54mn Bit rate : 1 023 Kbps Width : 853 pixels Height : 354 pixels Display aspect ratio : 2.40:1 Frame rate : 23.976 fps Color space : YUV Chroma subsampling : 4:2:0 Bit depth : 8 bits Scan type : Progressive Compression mode : Lossy Bits/(Pixel*Frame) : 0.141 Stream size : 841 MiB (88%) Writing library : Lavc52.116.0 Audio ID : 0 Format : MPEG Audio Format version : Version 1 Format profile : Layer 3 Mode : Joint stereo Codec ID : 55 Codec ID/Hint : MP3 Duration : 1h 54mn Bit rate mode : Constant Bit rate : 128 Kbps Channel(s) : 2 channels Sampling rate : 44.1 KHz Compression mode : Lossy Stream size : 105 MiB (11%) Alignment : Aligned on interleaves Interleave, duration : 42 ms (1.00 video frame) Writing library : LAME3.98.4





    CODE: 

    Pass : idfl.us

    Last edited by boyriot; 24-05-2012 at 03:28 PM.
    CODE: 

    // life motto if (sad() === true) { sad().stop(); beAwesome(); }


  15. The Following 8 Users Say Thank You to boyriot For This Useful Post:


  16. #9


    boyriot's Avatar
    User ID
    162
    Join Date
    February 21st, 2012
    Location
    Inside⏝You
    Posts
    4,323
    Thanks
    5,066
    Thanked
    7,558
    Rep Power
    50


    _[]_

     

    Safe House (2012) BluRay 720p 800MB Ganool


    Last edited by boyriot; 24-05-2012 at 11:10 AM.
    CODE: 

    // life motto if (sad() === true) { sad().stop(); beAwesome(); }


  17. The Following 13 Users Say Thank You to boyriot For This Useful Post:


  18. #10


    LittleMonster's Avatar
    User ID
    32
    Join Date
    February 20th, 2012
    Location
    Winchesterville
    Posts
    8,760
    Thanks
    5,780
    Thanked
    38,769
    Rep Power
    50


    Honestly what will become of
    me, don't like reality it's
    way too clear to me but really
    life is dandy, We are what we
    don't see missed everything
    daydreaming.

     

    Quote Originally Posted by boyriot View Post
    Safe House (2012) BluRay 720p 800MB Ganool
    Last edited by LittleMonster; 24-05-2012 at 11:58 AM.
    When all the worlds collide. all they know is to divide
    And it's easy if they're faceless, to hate the other side
    Dear God, dear soul, dear Mary, Muhammad
    Can we all just get along?
    Maybe if we’d work together,
    We’d already have a heaven here on earth.

  19. The Following 22 Users Say Thank You to LittleMonster For This Useful Post:



Page 1 of 5 123 ... LastLast

Similar Threads

  1. House of Lies (2012-2016) [Season 1-5 Complete]
    By VALENCiA in forum West Series
    Replies: 286
    Last Post: 13-06-2016, 02:00 PM
  2. Stash House (2012)
    By sue valentino in forum West Movies
    Replies: 7
    Last Post: 21-07-2014, 03:15 AM
  3. Tom And Jerry In The Dog House (2012)
    By rezaldi in forum Animation Movies
    Replies: 5
    Last Post: 09-12-2012, 11:11 PM

Tags for this Thread

Posting Permissions

  • You may not post new threads
  • You may not post replies
  • You may not post attachments
  • You may not edit your posts
  •  

Our Friends

Subscene | Rehmoe | Pein Akatsuki | index-subtitles | SmallEncode.com

VPS Murah | Pahe.in - 480p & 720p movie | SoundIndo | Marvel Universe | ReRips | Moxkid Movie

sharedualima | VPS Indonesia | Film Box Office | GriyaPC | er1ck9.Blog

 Hosting Indonesia | Dunia-Lebah | Robandit | movienthusiast | topgans

Kafe Download | NontonGratis | KBBI Online | enthus1ast.com | DHQmusic


Feel free to Contact Us


UNTUK PERIKLANAN HUBUNGI KAMI

 IDFL.Forum@gmail.com / PeinAkatsuki_IDFL@yahoo.com / LebahGanteng@yahoo.co.id : Email
  Erix-IDFL / PeinAkatsuki_IDFL: Skype
 
xire : LINE
  +62 818-0218-0085 / +62 822-6454-4221 / +62 881-3266-906 : Whatsapp 
  +62 818-0218-0085
: Telegram