Gods Of Egypt (2016) IDFL Forum


 


Texaspoker

... ...

Casino198 ...

Koinhoki™ Bandar Judi Poker Online Terpercaya, Games Domino QQ Online Terbaik, Agen poker Online Terbaik dan Situs Judi Poker Online Dengan Uang Asli Resmi Di Indonesia

Crown303 - Bandar Judi Bola, Daftar SBOBET Online Simpatiqq - Agen Poker Terpercaya , Pokerace99

Page 1 of 10 123 ... LastLast
Results 1 to 10 of 96

Thread: Gods Of Egypt (2016)

  1. #1



    User ID
    127847
    Join Date
    March 16th, 2015
    Posts
    5,570
    Thanks
    23
    Thanked
    16,709
    Rep Power
    18980

    No Status for Today

     

    Gods Of Egypt (2016)

    [CENTER]Gods Of Egypt 2016 CAM-UnKnOwN







    Story line[/CODE]
    CODE: 

    Mortal hero Bek teams with the god Horus in an alliance against Set, the merciless god of darkness who has usurped Egypt's throne, plunging the once peaceful and prosperous empire into chaos and conflict.


    Movie info
    CODE: 

    Director: Alex Proyas Writers: Matt Sazama, Burk Sharpless Stars: Brenton Thwaites, Nikolaj Coster-Waldau, Gerard Butler Encoded By .......:UnKnOwN Runtime ..........:1:56 IMDb URL .........: http://www.imdb.com/title/tt2404233/ Language .........:English File Size ........:988 mb Release Date ......... 2016 Source Thanks Bud File Type ......... Single MP4 Genre ..........Action/Adventure/Fantasy Video ID : 1 Format : AVC Format/Info : Advanced Video Codec Format profile : Baseline@L3.1 Format settings, CABAC : No Format settings, ReFrames : 2 frames Format settings, GOP : M=1, N=60 Codec ID : avc1 Codec ID/Info : Advanced Video Coding Duration : 1h 56mn Source duration : 1h 56mn Bit rate : 991 Kbps Width : 854 pixels Height : 480 pixels Display aspect ratio : 16:9 Frame rate mode : Constant Frame rate : 29.970 fps Color space : YUV Chroma subsampling : 4:2:0 Bit depth : 8 bits Scan type : Progressive Bits/(Pixel*Frame) : 0.081 Stream size : 824 MiB (83%) Source stream size : 824 MiB (83%) Encoded date : UTC 2016-02-28 06:50:46 Tagged date : UTC 2016-02-28 06:50:46 mdhd_Duration : 6976904 Audio ID : 2 Format : AAC Format/Info : Advanced Audio Codec Format profile : LC Codec ID : 40 Duration : 1h 56mn Bit rate mode : Constant Bit rate : 192 Kbps Channel(s) : 2 channels Channel positions : Front: L R Sampling rate : 48.0 KHz Compression mode : Lossy Stream size : 162 MiB (16%) Encoded date : UTC 2016-02-28 06:50:46 Tagged date : UTC 2016-02-28 06:50:46 mdhd_Duration : 6976918

    Download links
    CODE: 

    http://uptobox.com/qcu03ebtvye0


  2. The Following 9 Users Say Thank You to hadisofyan For This Useful Post:


  3. # ADS
    indonesian.library@yahoo.com
    Join Date
    14.Feb.2012
    Posts
    Contact Us For Cheap Advertising
     

  4. #2



    User ID
    127847
    Join Date
    March 16th, 2015
    Posts
    5,570
    Thanks
    23
    Thanked
    16,709
    Rep Power
    18980

    No Status for Today

     

    Gods Of Egypt 2016 CAM-UnKnOwN [988 MB]









    Download links
    CODE: 

    http://uptobox.com/aw99ivb9hwok


  5. The Following 7 Users Say Thank You to hadisofyan For This Useful Post:


  6. #3



    User ID
    127847
    Join Date
    March 16th, 2015
    Posts
    5,570
    Thanks
    23
    Thanked
    16,709
    Rep Power
    18980

    No Status for Today

     

    Gods Of Egypt (2016) CAM [600MB]





    Movie info
    CODE: 

    [RELEASE DATE]:…………[ 26 February 2016 [RUNTIME]:………………………[ 127 min [STARS]:……………………………[ Brenton Thwaites, Nikolaj Coster-Waldau, Gerard Butler [GENRE]:……………………………[ Action, Adventure, Fantasy [LANGUAGE]:……………………[ English [FORMAT]:…………………………[ MKV [FILE SIZE]:…………………[ 602.17 MB [ENCODER]:………………………[ SUMRAK@700mbmovies [AUDIO]………………………………[ aac, 48000 Hz, stereo [VIDEO]………………………………[ h264, yuv420p, 854×446, 29.97 fps(r) [SOURCE]:…………………………[ CAM.x264-UnKnOwN

    Download links
    CODE: 

    http://uptobox.com/g5zx24ledjje


  7. The Following 9 Users Say Thank You to hadisofyan For This Useful Post:


  8. #4



    User ID
    149936
    Join Date
    November 5th, 2015
    Posts
    12
    Thanks
    0
    Thanked
    10
    Rep Power
    0

    No Status for Today

     

    Bagus gak ini film . .

  9. #5


    zhey's Avatar
    User ID
    60428
    Join Date
    July 7th, 2013
    Location
    R-L.me - RumahUngu
    Posts
    5,680
    Thanks
    8,884
    Thanked
    12,457
    Rep Power
    50


    IDFL Lovers
    KafeDownload.com
    zheyIDFL@gmail.com

     


    Gods Of Egypt (2016)
    iTALiAN LD TELESYNC XviD-CriMiNaL
    IDFL.me & RumahUngu
    Referral Link "RDP - IDHosts.co.id" atau Email : zheyIDFL@Gmail.com
    GOOGLE DRIVE
    Visit Us : KAFEDOWNLOAD.com


  10. The Following 6 Users Say Thank You to zhey For This Useful Post:


  11. #6


    DomestosBL's Avatar
    User ID
    138608
    Join Date
    June 7th, 2015
    Posts
    25
    Thanks
    55
    Thanked
    10
    Rep Power
    0


    Swng

     

    menurut ane bagus gan di liat dari trailer tinggal menunggu Blu Ray
    Quote Originally Posted by vendy View Post
    Bagus gak ini film . .

  12. The Following User Says Thank You to DomestosBL For This Useful Post:


  13. #7



    User ID
    26594
    Join Date
    September 27th, 2012
    Posts
    887
    Thanks
    0
    Thanked
    2,980
    Rep Power
    3820


    urvdo.blogspot.com

     

    Gods Of Egypt 2016 CAM x264-UnKnOwN





    CODE: 

    http://www.imdb.com/title/tt2404233/

    Plot: Set, the merciless god of darkness, has taken over the throne of Egypt and plunged the once peaceful and prosperous empire into chaos and conflict. Few dare to rebel against him. A young thief, whose love was taken captive by the god, seeks to dethrone and defeat Set with the aid of the powerful god Horus.

    Genre: Action | Adventure | Fantasy
    IMDB Rating: 5.6/10 from 4,361 users
    Directed by: Alex Proyas
    Starring: Brenton Thwaites, Nikolaj Coster-Waldau, Gerard Butler

    Release Name: Gods.Of.Egypt.2016.CAM.x264-UnKnOwN
    Size: 988 MB
    Video: MP4 | 854×480 | 991 Kbps
    Audio: English | AAC | 192 Kbps
    Runtime: 1h 56mn
    Subtitles: N/A

    CODE: 

    Video: MPEG4 Video (H264) 854x480 29.97fps 990kbps [V: h264 constrained baseline L3.1, yuv420p, 854x480, 990 kb/s] Audio: AAC 48000Hz stereo 194kbps [A: SoundHandler (aac lc, 48000 Hz, stereo, 194 kb/s)] Format : MPEG-4 Format profile : Base Media Codec ID : isom File size : 992 MiB Duration : 1h 56mn Overall bit rate : 1 192 Kbps Writing application : Lavf57.20.100 Video ID : 1 Format : AVC Format/Info : Advanced Video Codec Format profile : Baseline@L3.1 Format settings, CABAC : No Format settings, ReFrames : 2 frames Format settings, GOP : M=1, N=60 Codec ID : avc1 Codec ID/Info : Advanced Video Coding Duration : 1h 56mn Bit rate : 991 Kbps Width : 854 pixels Height : 480 pixels Display aspect ratio : 16:9 Frame rate mode : Constant Frame rate : 29.970 fps Color space : YUV Chroma subsampling : 4:2:0 Bit depth : 8 bits Scan type : Progressive Bits/(Pixel*Frame) : 0.081 Stream size : 824 MiB (83%) Audio ID : 2 Format : AAC Format/Info : Advanced Audio Codec Format profile : LC Codec ID : 40 Duration : 1h 56mn Bit rate mode : Constant Bit rate : 192 Kbps Channel(s) : 2 channels Channel positions : Front: L R Sampling rate : 48.0 KHz Compression mode : Lossy Stream size : 162 MiB (16%)







    TRAILER
    CODE: 

    https://openload.co/f/JVWqq47EAUg/


    SAMPLE
    CODE: 

    https://openload.co/f/QDAmlEFI4Cs/

    DOWNLOAD
    CODE: 

    https://openload.co/f/3eIADxupROw/

    DOWNLOAD SMALL SIZE
    CODE: 

    https://openload.co/f/Y3VyDCi0UAY/

    Last edited by semiclip; 29-02-2016 at 09:25 PM.

  14. The Following 6 Users Say Thank You to semiclip For This Useful Post:


  15. #8


    ervanders's Avatar
    User ID
    1738
    Join Date
    March 28th, 2012
    Location
    Jauah di mato
    Posts
    3,106
    Thanks
    39,749
    Thanked
    13,646
    Rep Power
    50


    Dark side mode : ON

     

    Plot:
    Gods of Egypt diangkat berdasarkan mitologi Mesir, The Contest of Horus and Seth. Alkisah, Seth (Butler)
    dewa gurun yang terkenal kejam, mengambil alih takhta yang bukan miliknya, mengubah kerajaan yang semula
    damai menjadi penuh kekacauan. Horus (Coster-Waldau), sebagai pewaris takhta sesungguhnya, menghadapi Seth
    untuk mengklaim kembali haknya. Selama perjalanan misi melawan Seth, bergabung bersamanya seorang pencuri
    dari kalangan ras manusia (Thwaites), yang kekasihnya (Eaton) diperbudak oleh Seth.

    Beberapa film sang sutradara (Proyas), dikagumi terutama karena suguhan efek visualnya. Sebut saja I,Robot (2004)
    yang dinominasikan Academy Award untuk Efek Visual Terbaik. Karena, itu Gods of Egypt tampaknya tidak akan
    mengecewakan dan cukup mampu menarik minat penonton secara visual. Namun, kontroversi Hollywood whitewashing yang
    melibatkan jajaran cast-nya sudah terlanjur mencemari nama baik film ini. Apakah efek canggih mampu menyelamatkannya?
    Saksikan saja sendiri.


  16. The Following 13 Users Say Thank You to ervanders For This Useful Post:


  17. #9


    zhey's Avatar
    User ID
    60428
    Join Date
    July 7th, 2013
    Location
    R-L.me - RumahUngu
    Posts
    5,680
    Thanks
    8,884
    Thanked
    12,457
    Rep Power
    50


    IDFL Lovers
    KafeDownload.com
    zheyIDFL@gmail.com

     


    Gods Of Egypt (2016)
    CAM HDTS Mic Audio Line-jimmy
    IDFL.me & RumahUngu
    Referral Link "RDP - IDHosts.co.id" atau Email : zheyIDFL@Gmail.com
    GOOGLE DRIVE
    Visit Us : KAFEDOWNLOAD.com


  18. The Following 5 Users Say Thank You to zhey For This Useful Post:


  19. #10


    altruis's Avatar
    User ID
    9686
    Join Date
    June 8th, 2012
    Location
    surabaya
    Posts
    1,629
    Thanks
    2,649
    Thanked
    5,243
    Rep Power
    32815


    be

     

    Gods of Egypt (2016) HDTS x264 - Exclusive 1.4GB





    CODE: 

    http://uptobox.com/g7w0jq0kwazs https://userscloud.com/jqhhoi23d7p9

    Last edited by altruis; 01-03-2016 at 01:03 AM.

  20. The Following 6 Users Say Thank You to altruis For This Useful Post:


Page 1 of 10 123 ... LastLast

Tags for this Thread

Posting Permissions

  • You may not post new threads
  • You may not post replies
  • You may not post attachments
  • You may not edit your posts
  •  

Our Friends

Subscene | Rehmoe | Pein Akatsuki | index-subtitles | SmallEncode.com

VPS Murah | Pahe.in - 480p & 720p movie | SoundIndo | Marvel Universe | ReRips | Moxkid Movie

sharedualima | VPS Indonesia | Film Box Office | GriyaPC | er1ck9.Blog

 Hosting Indonesia | Dunia-Lebah | Robandit | movienthusiast | topgans

Kafe Download | NontonGratis | KBBI Online | enthus1ast.com | DHQmusic


Feel free to Contact Us


UNTUK PERIKLANAN HUBUNGI KAMI

 IDFL.Forum@gmail.com / PeinAkatsuki_IDFL@yahoo.com / LebahGanteng@yahoo.co.id : Email
  Erix-IDFL / PeinAkatsuki_IDFL: Skype
 
xire : LINE
  +62 818-0218-0085 / +62 822-6454-4221 / +62 881-3266-906 : Whatsapp 
  +62 818-0218-0085
: Telegram