How To Covert .MLV ? IDFL Forum


 


Texaspoker

... ...

Casino198 ...

Koinhoki™ Bandar Judi Poker Online Terpercaya, Games Domino QQ Online Terbaik, Agen poker Online Terbaik dan Situs Judi Poker Online Dengan Uang Asli Resmi Di Indonesia

Crown303 - Bandar Judi Bola, Daftar SBOBET Online Simpatiqq - Agen Poker Terpercaya , Pokerace99

Results 1 to 5 of 5

Thread: How To Covert .MLV ?

  1. #1


    CrooztModder's Avatar
    User ID
    56286
    Join Date
    May 31st, 2013
    Location
    Muka Lepi
    Posts
    30
    Thanks
    44
    Thanked
    18
    Rep Power
    0

    No Status for Today

     

    How To Covert .MLV ?


    Ane Punya file source dari iflix nih gan cuman ane gak bisa buka make video player dan ane gak bisa convert make sofwer conveter suhu2 disini ada punya cara gak convert supaya bisa di play , puyeng nyari di google cara nya susah
    Last edited by CrooztModder; 25-12-2016 at 03:15 AM.

  2. # ADS
    indonesian.library@yahoo.com
    Join Date
    14.Feb.2012
    Location
    08880.182.4423
    Posts
    Contact Us For Cheap Advertising
     

  3. #2


    ZEXEL's Avatar
    User ID
    51749
    Join Date
    April 22nd, 2013
    Location
    Banjarmasin City
    Posts
    48
    Thanks
    26
    Thanked
    104
    Rep Power
    0


    x264 enthusiast

     

    coba dicek pake MediaInfo kali aja keliatan isi nya pake codec/header apa

  4. #3


    CrooztModder's Avatar
    User ID
    56286
    Join Date
    May 31st, 2013
    Location
    Muka Lepi
    Posts
    30
    Thanks
    44
    Thanked
    18
    Rep Power
    0

    No Status for Today

     

    Quote Originally Posted by ZEXEL View Post
    coba dicek pake MediaInfo kali aja keliatan isi nya pake codec/header apa
    status nya encrypted gan gmn buka nya
    HTML CODE: SELECT ALL

    General Complete name : Format : MPEG-4 Format profile : Base Media Codec ID : isom (isom/iso2/avc1/mp41/opf2) File size : 136 MiB Duration : 1 h 29 min Overall bit rate mode : Variable Overall bit rate : 212 kb/s Writing application : Lavf56.7.104 Video ID : 1 Format : AVC Format/Info : Advanced Video Codec Format profile : Main@L2.1 Format settings, CABAC : Yes Format settings, ReFrames : 5 frames Codec ID : encv / avc1 / mp4a Duration : 1 h 29 min Bit rate : 172 kb/s Width : 426 pixels Height : 240 pixels Display aspect ratio : 2.35:1 Original display aspect rat : 2.40:1 Frame rate mode : Constant Frame rate : 25.000 FPS Color space : YUV Chroma subsampling : 4:2:0 Bit depth : 8 bits Scan type : Progressive Bits/(Pixel*Frame) : 0.067 Stream size : 111 MiB (81%) Encryption : Encrypted Audio ID : 2 Format : AAC Format/Info : Advanced Audio Codec Format profile : HE-AACv2 / HE-AAC / LC Codec ID : 40 Duration : 1 h 29 min Duration_LastFrame : -1 ms Bit rate mode : Variable Bit rate : 35.2 kb/s Nominal bit rate : 32.0 kb/s Maximum bit rate : 220 kb/s Channel(s) : 2 channels / 1 channel / 1 channel Channel positions : Front: L R / Front: C / Front: C Sampling rate : 48.0 kHz / 48.0 kHz / 24.0 kHz Frame rate : 23.438 FPS (1024 spf) Compression mode : Lossy Stream size : 22.6 MiB (17%) Language : English Default : Yes Alternate group : 1 Encryption : Encrypted


  5. #4


    ZEXEL's Avatar
    User ID
    51749
    Join Date
    April 22nd, 2013
    Location
    Banjarmasin City
    Posts
    48
    Thanks
    26
    Thanked
    104
    Rep Power
    0


    x264 enthusiast

     

    sayang skali mas, sy sendiri stlh meliat MediaInfo nya ternyata di "Encrypted" / diacak isinya Video + Audio nya kemungkinan file tersebut dilindungi DRM (digital right management) yang mana hanya boleh di puter via web/tvbox saja krn setiap file yg di encrpyt / diacak memerlukan "KEY" untuk proses reading/pembacaan file nya.

  6. The Following 2 Users Say Thank You to ZEXEL For This Useful Post:


  7. #5



    User ID
    206174
    Join Date
    July 25th, 2019
    Location
    Russia
    Posts
    2
    Thanks
    0
    Thanked
    0
    Rep Power
    0

    No Status for Today

     

    How To Covert MLV

    I do not know, I do not know .

Tags for this Thread

Posting Permissions

  • You may not post new threads
  • You may not post replies
  • You may not post attachments
  • You may not edit your posts
  •  

Our Friends

Subscene | Rehmoe | Pein Akatsuki | index-subtitles | SmallEncode.com

VPS Murah | Pahe.in - 480p & 720p movie | SoundIndo | Marvel Universe | ReRips | Moxkid Movie

sharedualima | VPS Indonesia | Film Box Office | GriyaPC | er1ck9.Blog

 Hosting Indonesia | Dunia-Lebah | Robandit | movienthusiast | topgans

Kafe Download | NontonGratis | KBBI Online | enthus1ast.com | DHQmusic


Feel free to Contact Us


UNTUK PERIKLANAN HUBUNGI KAMI

 IDFL.Forum@gmail.com / PeinAkatsuki_IDFL@yahoo.com / LebahGanteng@yahoo.co.id : Email
  Erix-IDFL / PeinAkatsuki_IDFL: Skype
 
xire : LINE
  +62 818-0218-0085 / +62 822-6454-4221 / +62 881-3266-906 : Whatsapp 
  +62 818-0218-0085
: Telegram