FULLMATCH Champions League : Juventus vs Ajax - FINAL (22-05-1996) IDFL Forum
Results 1 to 3 of 3

Thread: Champions League : Juventus vs Ajax - FINAL (22-05-1996)

  1. #1


    drew1's Avatar
    User ID
    9165
    Join Date
    June 4th, 2012
    Location
    Sini - Sarmoyo
    Posts
    2,672
    Thanks
    632
    Thanked
    2,194
    Rep Power
    20

    No Status for Today

     

    Champions League : Juventus vs Ajax - FINAL (22-05-1996)

    Champion Cup Final 22 May 1996 Juventus-Ajax









    [img]http://www.*******.com/images/787Juventus_Ajax_Final_Ch.jpg[/img]




    CODE: 

    General Format : Matroska Format version : Version 2 File size : 1.40 GiB Duration : 2h 30mn Overall bit rate : 1 331 Kbps Encoded date : UTC 2011-05-10 19:21:40 Writing application : mkvmerge v4.4.0 ('Die Wiederkehr') built on Oct 31 2010 21:52:48 Writing library : libebml v1.0.0 + libmatroska v1.0.0 Video ID : 1 Format : AVC Format/Info : Advanced Video Codec Format profile : Main@L5.1 Format settings, CABAC : Yes Format settings, ReFrames : 1 frame Muxing mode : Header stripping Codec ID : V_MPEG4/ISO/AVC Duration : 2h 30mn Bit rate : 1 176 Kbps Width : 768 pixels Height : 576 pixels Display aspect ratio : 4:3 Frame rate : 25.000 fps Color space : YUV Chroma subsampling : 4:2:0 Bit depth : 8 bits Scan type : Progressive Bits/(Pixel*Frame) : 0.106 Stream size : 1.24 GiB (88%) Title : C1 95 96 Juventus Ajax twb22.blogspot.com Language : French Default : Yes Forced : No Audio ID : 2 Format : MPEG Audio Format version : Version 1 Format profile : Layer 3 Muxing mode : Header stripping Codec ID : A_MPEG/L3 Codec ID/Hint : MP3 Duration : 2h 30mn Bit rate mode : Constant Bit rate : 128 Kbps Channel(s) : 2 channels Sampling rate : 44.1 KHz Compression mode : Lossy Stream size : 138 MiB (10%) Title : French Comments Writing library : LAMELAME Language : French Default : Yes Forced : No Text ID : 3 Format : UTF-8 Codec ID : S_TEXT/UTF8 Codec ID/Info : UTF-8 Plain Text Title : Credits Language : English Default : Yes Forced : No





  2. The Following 10 Users Say Thank You to drew1 For This Useful Post:


  3. #2


    dannpro's Avatar
    User ID
    29600
    Join Date
    October 21st, 2012
    Posts
    1,564
    Thanks
    977
    Thanked
    1,030
    Rep Power
    17


    Ryushare :((

     

    Champions League : Juventus vs Ajax
    FINAL
    (22 Mei 1996)

    Italian Commentary




    Format: AVI
    Size: 1393874679 bytes (1,30 GiB), duration: 02:38:01, avg.bitrate: 1176 kb/s
    Audio: mp3, 44100 Hz, 2 channels, s16, 112 kb/s
    Video: mpeg4, yuv420p, 640x464, 25,00 fps(r)




    Include 1st Half, 2nd Half + Trophy Presentation
    CODE: 

    http://www.filefactory.com/file/2rq8y098tafx/Ndha.IDFL.US.UCL.Juventus.vs.Ajax.22.05.1996.FINAL.avi http://hotfile.com/dl/247181594/aa82005/Ndha.IDFL.US.UCL.Juventus.vs.Ajax.22.05.1996.FINAL.avi.html http://uploaded.net/file/c4wp2fhm/Ndha.IDFL.US.UCL.Juventus.vs.Ajax.22.05.1996.FINAL.avi http://ryushare.com/1ipemog25b7z/Ndha.IDFL.US.UCL.Juventus.vs.Ajax.22.05.1996.FINAL.avi https://mega.co.nz/#!QEAAFRxS!aGLdwHlW3omXDpTjifd96GosPZlwH6ZrkrDrXNpJ7VY http://www.putlocker.com/file/65DB68CC79682FC8 http://www.nirafile.com/wqv9dkayjpu9.htm http://uptobox.com/jskouqvb0upp http://davvas.com/6o52mwvkgohv


    Note for Download:
    For free member, you should REGISTER FIRST!! and LOGIN before DOWNLOAD to get RESUMABLE LINK

    idfl.us
    Last edited by Ndha; 25-09-2013 at 03:59 AM.

  4. The Following 2 Users Say Thank You to dannpro For This Useful Post:


  5. #3


    Beppe's Avatar
    User ID
    5240
    Join Date
    May 1st, 2012
    Posts
    11
    Thanks
    358
    Thanked
    8
    Rep Power
    0

    No Status for Today

     

    mengobati rasa kecewa gagal di 1/4 final nonton final 96
    TY...

  6. The Following User Says Thank You to Beppe For This Useful Post:


Posting Permissions

  • You may not post new threads
  • You may not post replies
  • You may not post attachments
  • You may not edit your posts
  •  

Our Friends

Subscene | Rehmoe | Pein Akatsuki | index-subtitles | SmallEncode.com

VPS Murah | Pahe.in - 480p & 720p movie | SoundIndo | Marvel Universe | ReRips | Moxkid Movie

sharedualima | VPS Indonesia | Film Box Office | GriyaPC | er1ck9.Blog

 Hosting Indonesia | Dunia-Lebah | Robandit | movienthusiast | topgans

Kafe Download | NontonGratis | KBBI Online | enthus1ast.com | DHQmusic


Feel free to Contact Us


UNTUK PERIKLANAN HUBUNGI KAMI

 IDFL.Forum@gmail.com / PeinAkatsuki_IDFL@yahoo.com / LebahGanteng@yahoo.co.id : Email
  Erix-IDFL / PeinAkatsuki_IDFL: Skype
 
xire : LINE
  +62 818-0218-0085 / +62 822-6454-4221 / +62 881-3266-906 : Whatsapp 
  +62 818-0218-0085
: Telegram