FULLMATCH Champions League : Manchester United vs Bayern Muenchen - FINAL (26-05-1999) IDFL Forum


 


Texaspoker

... ...

Results 1 to 9 of 9

Thread: Champions League : Manchester United vs Bayern Muenchen - FINAL (26-05-1999)

  1. #1


    drew1's Avatar
    User ID
    9165
    Join Date
    June 4th, 2012
    Location
    Sini - Sarmoyo
    Posts
    2,672
    Thanks
    632
    Thanked
    2,194
    Rep Power
    20

    No Status for Today

     

    Champions League : Manchester United vs Bayern Muenchen - FINAL (26-05-1999)

    UCL Final 1999: 26-05-1999 Manchester United - Bayern Muenchen




    IDWS Link
    CODE: 

    Final Champions 99 part1 avi 001 - Indowebster.com Date upload: 29-Nov-2011 Size: 250 MB Final Champions 99 part1 avi 002 - Indowebster.com Date upload: 29-Nov-2011 Size: 181.62 MB Final Champions 99 part2 avi 001 - Indowebster.com Date upload: 30-Nov-2011 Size: 300 MB Final Champions 99 part2 avi 002 - Indowebster.com Date upload: 30-Nov-2011 Size: 273.36 MB


  2. The Following 10 Users Say Thank You to drew1 For This Useful Post:


  3. #2


    dknews's Avatar
    User ID
    11612
    Join Date
    June 23rd, 2012
    Location
    Dharma ayu
    Posts
    546
    Thanks
    1,124
    Thanked
    468
    Rep Power
    4024

    No Status for Today

     

    Kenangan MU Treble Winner

  4. The Following User Says Thank You to dknews For This Useful Post:


  5. #3



    User ID
    21571
    Join Date
    August 28th, 2012
    Posts
    27
    Thanks
    13
    Thanked
    48
    Rep Power
    0

    No Status for Today

     

    wah makasih banget gan, ane udah cari2 nih video, jaman waktu masih SD ini ane pas Man Utd Treble.

  6. The Following User Says Thank You to ryan_notic For This Useful Post:


  7. #4



    User ID
    105420
    Join Date
    July 18th, 2014
    Posts
    1
    Thanks
    0
    Thanked
    1
    Rep Power
    0

    No Status for Today

     

    Apa linknya masih bisa?

    Saya coba download yang part 1 avi 001 koq "page not found"?

  8. The Following User Says Thank You to ziwul For This Useful Post:


  9. #5



    User ID
    12755
    Join Date
    July 4th, 2012
    Posts
    23
    Thanks
    7
    Thanked
    1
    Rep Power
    0

    No Status for Today

     

    reupload ke uptobox donk om...plessee

  10. #6


    R3600's Avatar
    User ID
    48596
    Join Date
    March 24th, 2013
    Location
    Manchester
    Posts
    8,320
    Thanks
    5,211
    Thanked
    27,449
    Rep Power
    77083


    >>
    http://subscene.com/u/698167
    <<

     

    CODE: 

    General Unique ID : 235113123339858816530967799364098389052 (0xB0E123F4EA5FF6BA8DA99EC69BF6F43C) Complete name : N:\Convertidos\UEFA Champions League 1998-99 - Gr.D - Man. United - Barcelona 384p Eng (16-09-98)[SPPCCTEAM].mkv Format : Matroska Format version : Version 4 / Version 2 File size : 586 MiB Duration : 1h 19mn Overall bit rate : 1 033 Kbps Encoded date : UTC 2013-11-14 08:27:21 Writing application : mkvmerge v6.2.0 ('Promised Land') built on Apr 28 2013 12:22:01 Writing library : libebml v1.3.0 + libmatroska v1.4.0 Video ID : 1 Format : AVC Format/Info : Advanced Video Codec Format profile : Main@L3.0 Format settings, CABAC : Yes Format settings, ReFrames : 4 frames Codec ID : V_MPEG4/ISO/AVC Duration : 1h 19mn Bit rate : 900 Kbps Width : 526 pixels Height : 384 pixels Display aspect ratio : 1.370 Frame rate : 29.970 fps Color space : YUV Chroma subsampling : 4:2:0 Bit depth : 8 bits Scan type : Progressive Bits/(Pixel*Frame) : 0.149 Stream size : 502 MiB (86%) Title : By SppccTeam Writing library : x264 core 120 Encoding settings : cabac=1 / ref=1 / deblock=1:0:0 / analyse=0x1:0x111 / me=hex / subme=2 / psy=1 / psy_rd=1.00:0.00 / mixed_ref=0 / me_range=16 / chroma_me=1 / trellis=0 / 8x8dct=0 / cqm=0 / deadzone=21,11 / fast_pskip=1 / chroma_qp_offset=0 / threads=12 / sliced_threads=0 / nr=0 / decimate=1 / interlaced=0 / bluray_compat=0 / constrained_intra=0 / bframes=3 / b_pyramid=2 / b_adapt=1 / b_bias=0 / direct=1 / weightb=1 / open_gop=0 / weightp=1 / keyint=300 / keyint_min=30 / scenecut=40 / intra_refresh=0 / rc_lookahead=10 / rc=abr / mbtree=1 / bitrate=900 / ratetol=1.0 / qcomp=0.60 / qpmin=3 / qpmax=69 / qpstep=4 / ip_ratio=1.40 / aq=1:1.00 Language : English Default : Yes Forced : No Color primaries : BT.601-6 525, BT.1358 525, BT.1700 NTSC, SMPTE 170M Transfer characteristics : BT.709-5, BT.1361 Matrix coefficients : BT.601-6 525, BT.1358 525, BT.1700 NTSC, SMPTE 170M Audio ID : 2 Format : AC-3 Format/Info : Audio Coding 3 Mode extension : CM (complete main) Codec ID : A_AC3 Duration : 1h 19mn Bit rate mode : Constant Bit rate : 128 Kbps Channel(s) : 2 channels Channel positions : Front: L R Sampling rate : 48.0 KHz Bit depth : 16 bits Compression mode : Lossy Stream size : 72.6 MiB (12%) Title : Setanta Sports Language : English Default : Yes Forced : No

    CODE: 

    http://uploaded.net/file/lzpyjn7z


  11. The Following 2 Users Say Thank You to R3600 For This Useful Post:


  12. #7


    Ndha's Avatar
    User ID
    8
    Join Date
    February 20th, 2012
    Location
    https://ndha.my.id
    Posts
    15,318
    Thanks
    21,169
    Thanked
    11,601
    Rep Power
    50


    » fullmatchsports.com

     

    Champions League : Manchester United vs Bayern Munchen
    FINAL
    (25th May 1999)
    720p

    Germany Commentary



    File: ndhaIDFL.ChampionsLeague.ManchesterUnited.vs.Bayer nMuenchen.FINAL.26.05.1999.720p.mkv
    Size: 895979464 bytes (854.47 MiB), duration: 01:43:03, avg.bitrate: 1159 kb/s
    Audio: aac, 44100 Hz, stereo, s16
    Video: h264, yuv420p, 1280x720, 25.00 fps(r)




    Include 1st Half and 2nd Half

    CODE: 

    IIX NOT YET.... IX http://www.filefactory.com/file/5heyg7yrdshj/ndhaIDFL.ChampionsLeague.ManchesterUnited.vs.BayernMuenchen.FINAL.26.05.1999.720p.rar https://mega.co.nz/#!7YgjWD6K!GE-bQX5LYoZgpVhdrCd8-3CztSs6GZll19A3rc4EhO0 http://www.firedrive.com/file/D95D9CD4AFA8B358 http://uptobox.com/26utnu8mlrtc http://filecloud.io/p0s5ker7 http://ul.to/6wle5x2w


    Note for Download:
    For free member, you should REGISTER FIRST!! and LOGIN before DOWNLOAD to get RESUMABLE LINK

    Mau Download Cepat, Unlimited, tanpa Quota, 0 Pulsa, Full Speed ??
    Use Our Service >> http://idfl.info/showthread.php?t=70572 or http://ssh-uchiha.me

    :uchiha:
    CEO Juventini@IDFL

  13. The Following 4 Users Say Thank You to Ndha For This Useful Post:


  14. #8


    dknews's Avatar
    User ID
    11612
    Join Date
    June 23rd, 2012
    Location
    Dharma ayu
    Posts
    546
    Thanks
    1,124
    Thanked
    468
    Rep Power
    4024

    No Status for Today

     

    Versi 720p bikin ngiler.
    Download juga deh.

  15. The Following User Says Thank You to dknews For This Useful Post:


  16. #9


    R3600's Avatar
    User ID
    48596
    Join Date
    March 24th, 2013
    Location
    Manchester
    Posts
    8,320
    Thanks
    5,211
    Thanked
    27,449
    Rep Power
    77083


    >>
    http://subscene.com/u/698167
    <<

     


  17. The Following 2 Users Say Thank You to R3600 For This Useful Post:


Posting Permissions

  • You may not post new threads
  • You may not post replies
  • You may not post attachments
  • You may not edit your posts
  •  

Our Friends

Subscene | Rehmoe | Pein Akatsuki | index-subtitles | SmallEncode.com

VPS Murah | Pahe.in - 480p & 720p movie | SoundIndo | Marvel Universe | ReRips | Moxkid Movie

sharedualima | VPS Indonesia | Film Box Office | GriyaPC | er1ck9.Blog

 Hosting Indonesia | Dunia-Lebah | Robandit | movienthusiast | topgans

Kafe Download | NontonGratis | KBBI Online | enthus1ast.com | DHQmusic


Feel free to Contact Us


UNTUK PERIKLANAN HUBUNGI KAMI

 IDFL.Forum@gmail.com / PeinAkatsuki_IDFL@yahoo.com / LebahGanteng@yahoo.co.id : Email
  Erix-IDFL / PeinAkatsuki_IDFL: Skype
 
xire : LINE
  +62 818-0218-0085 / +62 822-6454-4221 / +62 881-3266-906 : Whatsapp 
  +62 818-0218-0085
: Telegram